【日影】[MagicStar] 钓鱼迷日记7 釣りバカ日誌7 1994 [WEBDL] [1080p] [AMZN]【生】【附日字】

动漫搬运工 2022-1-28 144


HD 1080p from Prime Video. Blu-ray Disc not released.
Japanese subtitles added.
alt text
alt text

General Unique ID                      : 243797938175810810480081304144098458550 (0xB769C66334C85B507DA376BEF7817BB6) Complete name                  : Tsuri.Baka.Nisshi.7.1994.1080p.AMZN.WEB-DL.DDP2.0.H.264-MagicStar.mkv Format                         : Matroska Format version                 : Version 4 File size                      : 9.97 GiB Duration                       : 1 h 37 min Overall bit rate               : 14.7 Mb/s Encoded date                   : UTC 2022-01-25 21:35:34 Writing application            : mkvmerge v50.0.0 ('Awakenings') 64-bit Writing library                : libebml v1.4.0 + libmatroska v1.6.2 Cover                          : Yes Attachments                    : cover.png  Video ID                             : 1 Format                         : AVC Format/Info                    : Advanced Video Codec Format profile                 : [email protected] Format settings                : CABAC / 4 Ref Frames Format settings, CABAC         : Yes Format settings, Reference fra : 4 frames Codec ID                       : V_MPEG4/ISO/AVC Duration                       : 1 h 37 min Bit rate                       : 14.4 Mb/s Width                          : 1 920 pixels Height                         : 800 pixels Display aspect ratio           : 2.40:1 Frame rate mode                : Constant Frame rate                     : 23.976 (24000/1001) FPS Color space                    : YUV Chroma subsampling             : 4:2:0 Bit depth                      : 8 bits Scan type                      : Progressive Bits/(Pixel*Frame)             : 0.392 Stream size                    : 9.81 GiB (98%) Default                        : Yes Forced                         : No Color range                    : Limited Color primaries                : BT.709 Transfer characteristics       : BT.709 Matrix coefficients            : BT.709  Audio ID                             : 2 Format                         : E-AC-3 Format/Info                    : Enhanced AC-3 Commercial name                : Dolby Digital Plus Codec ID                       : A_EAC3 Duration                       : 1 h 37 min Bit rate mode                  : Constant Bit rate                       : 224 kb/s Channel(s)                     : 2 channels Channel layout                 : L R Sampling rate                  : 48.0 kHz Frame rate                     : 31.250 FPS (1536 SPF) Compression mode               : Lossy Stream size                    : 156 MiB (2%) Language                       : Japanese Service kind                   : Complete Main Default                        : Yes Forced                         : No

下载地址:
番组表

最新动漫索引表

联盟成员

字幕组成员搜索表

动画库

动画库搜索表

更多往期

更多往期列表

pFDScB6.jpg
最新回复 (0)
返回
发新帖

关注动漫公众号