[MagicStar] 追踪者游戏 チェイサーゲーム EP02 [WEBDL] [1080p] [AMZN]【生】

动画更新员 2月前 21

详情:

    HD 1080p from Prime Video.
    Use CBR bitrate mode.


    We are planning to upload all prime video japan Dramas and Movies, we need your Support!


    Support Us

    Ali (Zhifubao / QR code): https://i.ibb.co/FWV2ggm/1660626347125.png

    USDT (Mainnet: TRC20): TZEUquHY1Uy62JLpbe4MnSbxAyqd2kJdk6
    LTC (Mainnet: Litecoin): ltc1qqth67fvzn6cunklklx2072havnlq4sfamnw9p9
    BTC (Mainnet: OMNI): 13UiDwv4CY9FrxnM6ZFiiaKU4EoKQ1CzAd
    ETH (Mainnet: ERC20): 0xd663d775e3d53d9e068f294af22883e19cc0fdd8


    alt text
    alt text

    General Unique ID                      : 22375678542605126555740454119844642596 (0x10D566207B19BF02D24A2DECF75C7F24) Complete name                  : Chaser.Game.EP02.1080p.AMZN.WEB-DL.DDP2.0.H.264-MagicStar.mkv Format                         : Matroska Format version                 : Version 4 File size                      : 1.57 GiB Duration                       : 24 min 0 s Overall bit rate mode          : Constant Overall bit rate               : 9 373 kb/s Encoded date                   : UTC 2022-09-25 00:09:46 Writing application            : mkvmerge v50.0.0 ('Awakenings') 64-bit Writing library                : libebml v1.4.0 + libmatroska v1.6.2 Cover                          : Yes Attachments                    : cover.png  Video ID                             : 1 Format                         : AVC Format/Info                    : Advanced Video Codec Format profile                 : [email protected] Format settings                : CABAC / 4 Ref Frames Format settings, CABAC         : Yes Format settings, Reference fra : 4 frames Codec ID                       : V_MPEG4/ISO/AVC Duration                       : 24 min 0 s Bit rate mode                  : Constant Bit rate                       : 9 145 kb/s Nominal bit rate               : 10 000 kb/s Width                          : 1 920 pixels Height                         : 1 080 pixels Display aspect ratio           : 16:9 Frame rate mode                : Constant Frame rate                     : 29.970 (29970/1000) FPS Original frame rate            : 29.970 (30000/1001) FPS Color space                    : YUV Chroma subsampling             : 4:2:0 Bit depth                      : 8 bits Scan type                      : Progressive Bits/(Pixel*Frame)             : 0.147 Stream size                    : 1.53 GiB (98%) Default                        : Yes Forced                         : No Color range                    : Limited Color primaries                : BT.709 Transfer characteristics       : BT.709 Matrix coefficients            : BT.709  Audio ID                             : 2 Format                         : E-AC-3 Format/Info                    : Enhanced AC-3 Commercial name                : Dolby Digital Plus Codec ID                       : A_EAC3 Duration                       : 24 min 0 s Bit rate mode                  : Constant Bit rate                       : 224 kb/s Channel(s)                     : 2 channels Channel layout                 : L R Sampling rate                  : 48.0 kHz Frame rate                     : 31.250 FPS (1536 SPF) Compression mode               : Lossy Stream size                    : 38.5 MiB (2%) Language                       : Japanese Service kind                   : Complete Main Default                        : Yes Forced                         : No

标签:
下载地址:
最新回复 (0)
返回
发新帖