[MagicStar] 暗金丑岛君外传 暗金犀原小姐 闇金ウシジマくん外伝 闇金サイハラさん EP02 [WEBDL] [1080p] [Netflix]【生】【附日字】

动画更新员 2月前 35

详情:

    HD 1080p from Netflix.
    Japanese subtitles added.
    alt text
    alt text

    General Unique ID                      : 136713821924820355240049631349743138282 (0x66DA1FD51E0E724DC8B0E9DA14C9B5EA) Complete name                  : Yamikin.Saihara.San.EP02.1080p.NF.WEB-DL.DDP2.0.H.264-MagicStar.mkv Format                         : Matroska Format version                 : Version 4 File size                      : 1.02 GiB Duration                       : 23 min 47 s Overall bit rate mode          : Variable Overall bit rate               : 6 150 kb/s Encoded date                   : UTC 2022-09-24 02:12:09 Writing application            : mkvmerge v50.0.0 ('Awakenings') 64-bit Writing library                : libebml v1.4.0 + libmatroska v1.6.2 Cover                          : Yes Attachments                    : cover.png  Video ID                             : 1 Format                         : AVC Format/Info                    : Advanced Video Codec Format profile                 : [email protected] Format settings                : CABAC / 4 Ref Frames Format settings, CABAC         : Yes Format settings, ReFrames      : 4 frames Codec ID                       : V_MPEG4/ISO/AVC Duration                       : 23 min 46 s Bit rate mode                  : Variable Bit rate                       : 6 020 kb/s Maximum bit rate               : 20.0 Mb/s Width                          : 1 920 pixels Height                         : 1 080 pixels Display aspect ratio           : 16:9 Frame rate mode                : Constant Frame rate                     : 29.970 (29970/1000) FPS Original frame rate            : 29.970 (30000/1001) FPS Color space                    : YUV Chroma subsampling             : 4:2:0 Bit depth                      : 8 bits Scan type                      : Progressive Bits/(Pixel*Frame)             : 0.097 Stream size                    : 1.00 GiB (98%) Writing library                : x264 core 148 r2727 7d026e8 Encoding settings              : cabac=1 / ref=4 / deblock=1:0:0 / analyse=0x3:0x111 / me=umh / subme=10 / psy=1 / psy_rd=1.00:0.00 / mixed_ref=1 / me_range=120 / chroma_me=1 / trellis=2 / 8x8dct=1 / cqm=0 / deadzone=21,11 / fast_pskip=1 / chroma_qp_offset=-2 / threads=6 / lookahead_threads=1 / sliced_threads=0 / nr=0 / decimate=1 / interlaced=0 / bluray_compat=0 / stitchable=1 / constrained_intra=0 / bframes=16 / b_pyramid=2 / b_adapt=2 / b_bias=0 / direct=3 / weightb=1 / open_gop=0 / weightp=2 / keyint=300 / keyint_min=151 / scenecut=0 / intra_refresh=0 / rc_lookahead=250 / rc=crf / mbtree=1 / crf=16.0 / qcomp=0.50 / qpmin=6 / qpmax=51 / qpstep=4 / vbv_maxrate=20000 / vbv_bufsize=25000 / crf_max=0.0 / nal_hrd=vbr / filler=0 / ip_ratio=1.40 / aq=1:0.80 Default                        : Yes Forced                         : No  Audio ID                             : 2 Format                         : E-AC-3 Format/Info                    : Enhanced AC-3 Commercial name                : Dolby Digital Plus Codec ID                       : A_EAC3 Duration                       : 23 min 47 s Bit rate mode                  : Constant Bit rate                       : 128 kb/s Channel(s)                     : 2 channels Channel layout                 : L R Sampling rate                  : 48.0 kHz Frame rate                     : 31.250 FPS (1536 SPF) Compression mode               : Lossy Stream size                    : 21.8 MiB (2%) Language                       : Japanese Service kind                   : Complete Main Default                        : Yes Forced                         : No

标签:
下载地址:
最新回复 (0)
返回
发新帖